Dead Beat (1994)
Concealed Weapon (1994)
img image001 image001 image001 image001 image001 image001 image001 image001 image001 image001 image001 image001 image001 image001 image001
Planets Sun Sun Sun
Статистика раздачи
Автор: PriZraK | Размер: 2.2 ГБ | Добавлен: 12 фев 2018
Раздают: 22    Качают: 2
Скачать торрент
Скачать торрент
Описание торрента

СообщениеДобавлено: 12 фев 2018 

Тайное окно / Secret Window
Оценка релиза: 

Перевод: Профессиональный (полное дублирование), субтитры: отсутствуют
Формат: BDRip-AVC, MKV, H.264, AC3
Страна: США
Режиссер: Дэвид Кепп
Жанр: триллер, детектив
Продолжительность: 01:35:56
Год выпуска: 2004
В ролях: Джонни Депп, Джон Туртурро, Мария Белло, Тимоти Хаттон, Чарльз С. Даттон, Лен Кариу, Джоан Хини, Джон Данн-Хилл, Власта Врана, Мэтт Холлэнд
Описание:
По роману Стивена Кинга о талантливом писателе Морте Рейни, в жизни которого наступила чёрная полоса, когда за одной неприятностью следом идёт другая, и, кажется, нет им конца. Первым ударом для героя становится измена жены. Не желая мириться с предательством он подаёт на развод и проходит через все необходимые юридические процедуры. Изрядно устав от бракоразводного процесса, Морт собирается отдохнуть и набраться сил в сельской глуши, полностью посвятив себя творчеству. Возможно, ему бы и удалось восстановить душевное равновесие, если бы не человек, который утверждает будто Морт Рейни украл у него рассказ и издал от своего имени. Теперь он угрожает писателю расправой…Но Морт чувствует, что во всей этой истории что-то не так…



Видео: 1280x528 (2.40:1) 23,976 fps, MPEG4 AVC (x264) , 2857 kbps avg, 0.176 bit/pixel
Аудио: 48 kHz, AC3 Dolby Digital, 3/2 (L,C,R,l,r) + LFE ch, ~448.00 kbps avg

Complete name : D:\Тайное_окно.2004.BDRip.2,1gb.mkv
Format : Matroska
File size : 2.20 GiB
Duration : 1h 35mn
Overall bit rate : 3 278 Kbps
Encoded date : UTC 2010-09-19 22:35:54
Writing application : mkvmerge v3.0.0 ('Hang up your Hang-Ups') built on Dec 12 2009 15:20:35
Writing library : libebml v0.7.9 + libmatroska v0.8.1

Video
ID : 1
Format : AVC
Format/Info : Advanced Video Codec
Format profile :
Format settings, CABAC : Yes
Format settings, ReFrames : 3 frames
Codec ID : V_MPEG4/ISO/AVC
Duration : 1h 35mn
Bit rate mode : Variable
Bit rate : 2 857 Kbps
Maximum bit rate : 17.5 Mbps
Width : 1 280 pixels
Height : 528 pixels
Display aspect ratio : 2.40:1
Original display aspect ratio : 2.40:1
Frame rate : 23.976 fps
Color space : YUV
Chroma subsampling : 4:2:0
Bit depth : 8 bits
Scan type : Progressive
Bits/(Pixel*Frame) : 0.176
Stream size : 1.85 GiB (84%)
Writing library : x264 core 104 r1713 c276662
Encoding settings : cabac=1 / ref=1 / deblock=1:0:0 / analyse=0x3:0x3 / me=dia / subme=1 / psy=1 / psy_rd=0.00:0.00 / mixed_ref=0 / me_range=16 / chroma_me=1 / trellis=0 / 8x8dct=1 / cqm=0 / deadzone=21,11 / fast_pskip=1 / chroma_qp_offset=0 / threads=6 / sliced_threads=0 / slices=4 / nr=0 / decimate=1 / interlaced=0 / constrained_intra=0 / bframes=3 / b_pyramid=1 / b_adapt=1 / b_bias=0 / direct=1 / weightb=1 / open_gop=0 / weightp=0 / keyint=24 / keyint_min=1 / scenecut=40 / intra_refresh=0 / rc_lookahead=0 / rc=abr / mbtree=0 / bitrate=2857 / ratetol=1.0 / qcomp=0.60 / qpmin=0 / qpmax=51 / qpstep=4 / vbv_maxrate=17500 / vbv_bufsize=14500 / ip_ratio=1.10 / pb_ratio=1.10 / aq=1:1.00 / nal_hrd=vbr

Audio
ID : 2
Format : AC-3
Format/Info : Audio Coding 3
Mode extension : CM (complete main)
Codec ID : A_AC3
Duration : 1h 35mn
Bit rate mode : Constant
Bit rate : 448 Kbps
Channel(s) : 6 channels
Channel positions : Front: L C R, Side: L R, LFE
Sampling rate : 48.0 KHz
Bit depth : 16 bits
Stream size : 307 MiB (14%)
Title : Профессиональный (полное дублирование)
Language : Russian

















   Похожие торренты   Торрент   Размер 
В этой теме нет новых непрочитанных сообщений. Тайное окно / Secret Window (2004) HDRip-AVC | D

73 | 11

746.29 МБ

В этой теме нет новых непрочитанных сообщений. Тайное окно / Secret Window (2004) HDRip от Scarabey

458 | 23

1.47 ГБ

В этой теме нет новых непрочитанных сообщений. Тайное окно / Secret Window (2004) BDRip от HQCLUB

29 | 6

1.45 ГБ

В этой теме нет новых непрочитанных сообщений. Тайное окно / Secret Window (2004) BDRip 720p

9 | 15

4.84 ГБ

В этой теме нет новых непрочитанных сообщений. Тайное окно / Secret Window (2004) BDRip 1080p

47 | 4

8.96 ГБ

В этой теме нет новых непрочитанных сообщений. Тайное окно / Secret Window (2004) BDRip 720p | D, P2, P, A

194 | 20

4.17 ГБ

В этой теме нет новых непрочитанных сообщений. Тайное окно / Secret Window (2004) BDRip от HQ-ViDEO | PROPER

28 | 0

1.45 ГБ




Вы не можете начинать темы
Вы не можете отвечать на сообщения
Вы не можете редактировать свои сообщения
Вы не можете удалять свои сообщения
Вы не можете добавлять вложения

Перейти:  
Для Мосгорсуда, Роскомнадзора и рекламодателей: mosgorsud-torrent[собачка]yandex.ru
 Вход
ppkBB3cker v.2 © 2008-2014 @ PPK
[ Time : 0.067s | 19 Queries | GZIP : Off ]

cron