A Wrinkle In Time (2018) HDRip Xvid .mp4 megavideo Contraseña Gratis
A Wrinkle In Time (2018) putlocker libre
img image001 image001 image001 image001 image001 image001 image001 image001 image001 image001 image001 image001 image001 image001 image001
Planets Sun Sun Sun
Статистика раздачи
Автор: Снежана | Размер: 1.01 ГБ | Добавлен: 13 фев 2018
Раздают: 130    Качают: 2
Скачать торрент
Скачать торрент
Описание торрента

СообщениеДобавлено: 13 фев 2018 

Призраки / Hjemsøkt / Haunted


Перевод: Авторский (одноголосый), субтитры: отсутствуют
Формат: BDRip-AVC, MKV, H.264, MP3
Страна: Норвегия
Режиссер: Карл Кристиан Раабе
Жанр: триллер, криминал
Продолжительность: 01:22:00
Год выпуска: 2017
В ролях: Синневе Макоди Лунд, Эбба Стинстрап, Кен Ведсегор, Сесиль Ёстад, Йорунн Кьеллсби, Ола Отнес, Роберт Скйэрстад

Описание: Историю о Кэтрин, которая недавно потеряла своего отца. Она наследует старый дом и отправляется туда, чтобы продать его. Кэтрин хочет избавиться от него как можно скорее, чтобы избежать таинственного семейного прошлого, которое уже плохо помнит, но дом оставляет сильное впечатление на нее. Рассказы местных жителей о таинственных исчезновениях и возможных убийствах еще более интригует. Столкнувшись с прошлым, открываются старые раны, и Кэтрин погружается в то, что дом хранил годами!



Видео: 1712x720 (2.40:1), 23,976 fps, ~1600 kbps avg, 0.054 bit/pixel
Аудио: 44.100 kHz, MPEG Layer 3, 2 ch, ~192.00 kbps avg
Трейлеры:








медиа инфо

Полное имя : C:\Hjemsokt.2017Xixidok.mkv
Формат : Matroska
Версия формата : Version 4 / Version 2
Размер файла : 1,01 Гбайт
Продолжительность : 1 ч. 21 м.
Общий поток : 1764 Кбит/сек
Дата кодирования : UTC 2018-02-12 08:41:35
Программа кодирования : mkvmerge v8.3.0 ('Over the Horizon') 64bit
Библиотека кодирования : libebml v1.3.1 + libmatroska v1.4.2

Видео
Идентификатор : 1
Формат : AVC
Формат/Информация : Advanced Video Codec
Профиль формата :
Настройки формата : CABAC / 4 Ref Frames
Параметр CABAC формата : Да
Параметр RefFrames формата : 4 кадра
Идентификатор кодека : V_MPEG4/ISO/AVC
Продолжительность : 1 ч. 21 м.
Битрейт : 1600 Кбит/сек
Ширина : 1712 пикселей
Высота : 720 пикселей
Соотношение сторон : 2,40:1
Режим частоты кадров : Переменный
Частота кадров : 23,976 кадра/сек
Цветовое пространство : YUV
Субдискретизация насыщенности : 4:2:0
Битовая глубина : 8 бит
Тип развёртки : Прогрессивная
Бит/(Пиксели*Кадры) : 0.054
Размер потока : 920 Мбайт (89%)
Библиотека кодирования : x264 core 148
Настройки программы : cabac=1 / ref=3 / deblock=1:0:0 / analyse=0x3:0x113 / me=hex / subme=7 / psy=1 / psy_rd=1.00:0.00 / mixed_ref=1 / me_range=16 / chroma_me=1 / trellis=1 / 8x8dct=1 / cqm=0 / deadzone=21,11 / fast_pskip=1 / chroma_qp_offset=-2 / threads=6 / lookahead_threads=1 / sliced_threads=0 / nr=0 / decimate=1 / interlaced=0 / bluray_compat=0 / constrained_intra=0 / bframes=3 / b_pyramid=2 / b_adapt=1 / b_bias=0 / direct=1 / weightb=1 / open_gop=0 / weightp=2 / keyint=250 / keyint_min=23 / scenecut=40 / intra_refresh=0 / rc_lookahead=40 / rc=abr / mbtree=1 / bitrate=1600 / ratetol=1.0 / qcomp=0.60 / qpmin=0 / qpmax=69 / qpstep=4 / ip_ratio=1.40 / aq=1:1.00
Язык : English
Default : Да
Forced : Нет

Аудио
Идентификатор : 2
Формат : MPEG Audio
Версия формата : Version 1
Профиль формата : Layer 3
Идентификатор кодека : A_MPEG/L3
Идентификатор кодека/Подсказка : MP3
Продолжительность : 1 ч. 21 м.
Вид битрейта : Постоянный
Битрейт : 192 Кбит/сек
Каналы : 2 канала
Частота : 44,1 КГц
Частота кадров : 38,281 кадров/сек (1152 SPF)
Метод сжатия : С потерями
Размер потока : 112 Мбайт (11%)
Default : Да
Forced : Нет



   Похожие торренты   Торрент   Размер 
В этой теме нет новых непрочитанных сообщений. Призраки / Hjemsokt / Haunted (Карл Кристиан Раабе) [2017, триллер, драма, криминал, HDRip] AVO

67 | 2

821.07 МБ

В этой теме нет новых непрочитанных сообщений. Паук, 1 сезон 1-6 серии из 6 / Edderkoppen [Web_Money] (Оле Кристиан Мадсен) [2000, триллер, драма, мелодрама, криминал, DVDRip-AVC, L1]

4 | 0

4.27 ГБ

В этой теме нет новых непрочитанных сообщений. Форсаж 8 / The Fate of the Furious (Ф. Гэри Грей) [2017, боевик, триллер, криминал, BDRip] DUB

35 | 2

1.46 ГБ

В этой теме нет новых непрочитанных сообщений. Выстрел в пустоту / Shot Caller (Рик Роман Во) [2017, триллер, драма, криминал, BDRip] DUB

80 | 5

745.51 МБ

В этой теме нет новых непрочитанных сообщений. Выстрел в пустоту / Shot Caller (Рик Роман Во) [2017, триллер, драма, криминал, BDRip] MVO

91 | 2

1.46 ГБ

В этой теме нет новых непрочитанных сообщений. Спецназ: В осаде / S.W.A.T.: Under Siege (Тони Гиглио) [2017, боевик, триллер, криминал, BDRip-AVC] MVO

40 | 7

1.46 ГБ

В этой теме нет новых непрочитанных сообщений. Bыcтpeл в пyстoтy / Shot Caller (Рик Роман Во) [2017, триллер, драма, криминал, BDRip] DUB

1070 | 13

1.41 ГБ




Вы не можете начинать темы
Вы не можете отвечать на сообщения
Вы не можете редактировать свои сообщения
Вы не можете удалять свои сообщения
Вы не можете добавлять вложения

Перейти:  
Для Мосгорсуда, Роскомнадзора и рекламодателей: mosgorsud-torrent[собачка]yandex.ru
 Вход
ppkBB3cker v.2 © 2008-2014 @ PPK
[ Time : 0.059s | 19 Queries | GZIP : Off ]

cron