Coco BluRayRip AC3 5.1
Morir BluRayRip AC3 5.1
img image001 image001 image001 image001 image001 image001 image001 image001 image001 image001 image001 image001 image001 image001 image001
Planets Sun Sun Sun
Статистика раздачи
Автор: Снежана | Размер: 2.18 ГБ | Добавлен: 13 фев 2018
Раздают: 12    Качают: 0
Скачать торрент
Скачать торрент
Описание торрента

СообщениеДобавлено: 13 фев 2018 

Мрачные тени / Dark Shadows


Перевод: Профессиональный (полное дублирование), субтитры: русские, английские
Формат: BDRip-AVC, MKV, H.264, АС3
Страна: США
Жанр: фэнтези, мелодрама, комедия
Режиссер: Тим Бёртон
Продолжительность: 01:53:04
Год выпуска: 2012

В ролях: Джонни Депп, Мишель Пфайффер, Хелена Бонем Картер, Ева Грин, Джеки Эрл Хейли, Джонни Ли Миллер, Белла Хиткот, Хлоя Грейс Морец, Гулливер МакГрат, Кристофер Ли

Описание: Владелец поместья Коллинвуд, Барнабас Коллинз, богат, властен и слывет неисправимым Казановой, пока не совершает роковую ошибку, разбив сердце Анжелики Бошар. Будучи ведьмой в буквальном смысле этого слова, она обрекает его на судьбу, худшую, чем сама смерть — обращает его в вампира и хоронит заживо. Два века спустя Барнабаса случайно освобождают из склепа, и тот оказывается в очень изменившемся мире 1972 года. Он возвращается в Коллинвуд и находит в руинах это некогда величественное здание. Жалкие потомки его семьи сохранились лишь немногим лучше родового гнезда, и у каждого из них есть свои «скелеты в шкафу».



Видео: 1184x676 (16:9), 23.976 fps, AVC (H.264), ~1868 kbps, 0.099 bit/pixel
Аудио #1: Русский: 48 kHz, AC3 Dolby Digital, 3/2 (L,C,R,l,r) + LFE ch, ~448 kbps [Профессиональный (полное дублирование)]
Аудио #2: Английский: 48 kHz, AC3 Dolby Digital, 3/2 (L,C,R,l,r) + LFE ch, ~448 kbps [Оригинал]

Доп. информация: Основой для фильма послужил одноимённый культовый телесериал, шедший в США со второй половины 60-х до начала 70-х.
General
Unique ID : 245052305176786564311890626606291071524 (0xB85B5B749CB1C8F6B8EB7842E479B224)
Format : Matroska
Format version : Version 2
File size : 2.18 GiB
Duration : 1h 53mn
Overall bit rate : 2 765 Kbps
Movie name : Dark Shadows (2012) - BDRip by (DeeKay)
Encoded date : UTC 2012-09-06 12:32:48
Writing application : mkvmerge v5.6.0 ('Kenya Kane') built on Jun 29 2012 15:01:44
Writing library : libebml v1.2.3 + libmatroska v1.3.0
Video
ID : 1
Format : AVC
Format/Info : Advanced Video Codec
Format profile :
Format settings, CABAC : Yes
Format settings, ReFrames : 9 frames
Codec ID : V_MPEG4/ISO/AVC
Duration : 1h 53mn
Bit rate : 1 868 Kbps
Width : 1 184 pixels
Height : 666 pixels
Display aspect ratio : 16:9
Frame rate : 23.976 fps
Color space : YUV
Chroma subsampling : 4:2:0
Bit depth : 8 bits
Scan type : Progressive
Bits/(Pixel*Frame) : 0.099
Stream size : 1.43 GiB (66%)
Writing library : x264 core 125 r2200kMod 999b753
Encoding settings : cabac=1 / ref=9 / deblock=1:-2:-2 / analyse=0x3:0x133 / me=umh / subme=11 / psy=1 / fade_compensate=0.00 / psy_rd=1.05:0.10 / mixed_ref=1 / me_range=32 / chroma_me=1 / trellis=2 / 8x8dct=1 / cqm=0 / deadzone=21,11 / fast_pskip=0 / chroma_qp_offset=-3 / threads=6 / lookahead_threads=1 / sliced_threads=0 / nr=0 / decimate=0 / interlaced=0 / bluray_compat=0 / constrained_intra=0 / bframes=10 / b_pyramid=2 / b_adapt=2 / b_bias=0 / direct=3 / weightb=1 / open_gop=0 / weightp=2 / keyint=240 / keyint_min=23 / scenecut=40 / intra_refresh=0 / rc_lookahead=60 / rc=2pass / mbtree=0 / bitrate=1868 / ratetol=1.0 / qcomp=0.60 / qpmin=10 / qpmax=51 / qpstep=4 / cplxblur=20.0 / qblur=0.5 / vbv_maxrate=50000 / vbv_bufsize=62500 / nal_hrd=none / ip_ratio=1.35 / pb_ratio=1.25 / aq=3:0.70
Language : English
Default : Yes
Forced : Yes
Color primaries : BT.709-5, BT.1361, IEC 61966-2-4, SMPTE RP177
Transfer characteristics : BT.709-5, BT.1361
Matrix coefficients : BT.709-5, BT.1361, IEC 61966-2-4 709, SMPTE RP177
Audio #1
ID : 2
Format : AC-3
Format/Info : Audio Coding 3
Mode extension : CM (complete main)
Format settings, Endianness : Big
Codec ID : A_AC3
Duration : 1h 53mn
Bit rate mode : Constant
Bit rate : 448 Kbps
Channel(s) : 6 channels
Channel positions : Front: L C R, Side: L R, LFE
Sampling rate : 48.0 KHz
Bit depth : 16 bits
Compression mode : Lossy
Stream size : 362 MiB (16%)
Title : Dub
Language : Russian
Default : Yes
Forced : No
Audio #2
ID : 3
Format : AC-3
Format/Info : Audio Coding 3
Mode extension : CM (complete main)
Format settings, Endianness : Big
Codec ID : A_AC3
Duration : 1h 53mn
Bit rate mode : Constant
Bit rate : 448 Kbps
Channel(s) : 6 channels
Channel positions : Front: L C R, Side: L R, LFE
Sampling rate : 48.0 KHz
Bit depth : 16 bits
Compression mode : Lossy
Stream size : 362 MiB (16%)
Title : Original
Language : English
Default : No
Forced : No
Text #1
ID : 4
Format : UTF-8
Codec ID : S_TEXT/UTF8
Codec ID/Info : UTF-8 Plain Text
Title : Forced
Language : Russian
Default : Yes
Forced : No
Text #2
ID : 5
Format : UTF-8
Codec ID : S_TEXT/UTF8
Codec ID/Info : UTF-8 Plain Text
Title : Full
Language : Russian
Default : No
Forced : No
Text #3
ID : 6
Format : UTF-8
Codec ID : S_TEXT/UTF8
Codec ID/Info : UTF-8 Plain Text
Title : Sub
Language : English
Default : No
Forced : No
Text #4
ID : 7
Format : UTF-8
Codec ID : S_TEXT/UTF8
Codec ID/Info : UTF-8 Plain Text
Title : SDH
Language : English
Default : No
Forced : No












   Похожие торренты   Торрент   Размер 
В этой теме нет новых непрочитанных сообщений. Мрачные тени / Dark Shadows (2012) BDRip-AVC

13 | 7

745.45 МБ

В этой теме нет новых непрочитанных сообщений. Мрачные тени / Dark Shadows (2012) BDRip от HQ-ViDEO

63 | 7

2.54 ГБ

В этой теме нет новых непрочитанных сообщений. Мрачные тени / Dark Shadows (2012) BDRip 1080p | D, A

29 | 5

6.47 ГБ

В этой теме нет новых непрочитанных сообщений. Мрачные тени / Dark Shadows (2012) BDRip-AVC | iPad

13 | 3

2.44 ГБ

В этой теме нет новых непрочитанных сообщений. Мрачные тени / Dark Shadows (2012) BDRip-AVC от Rulya74

126 | 6

1.45 ГБ

В этой теме нет новых непрочитанных сообщений. Мрачные тени / Dark Shadows (2012) BDRip 1080p

56 | 4

5.77 ГБ

В этой теме нет новых непрочитанных сообщений. Мрачные тени / Dark Shadows (2012) BDRip 720p | D, A

128 | 8

4.19 ГБ




Вы не можете начинать темы
Вы не можете отвечать на сообщения
Вы не можете редактировать свои сообщения
Вы не можете удалять свои сообщения
Вы не можете добавлять вложения

Перейти:  
Для Мосгорсуда, Роскомнадзора и рекламодателей: mosgorsud-torrent[собачка]yandex.ru
 Вход
ppkBB3cker v.2 © 2008-2014 @ PPK
[ Time : 0.068s | 19 Queries | GZIP : Off ]

cron